Updating xbox 360 codecs

The video formats listed in this guide are Xbox-compatible.Just copy a video file to your USB drive or external hard drive and you're good to go! 0 [matroska,webm @ 0x80726c0] Estimating duration from bitrate, this may be inaccurate Seems stream 1 codec frame rate differs from container frame rate: 47.95 (5994/125) -Stream #0.0(eng): Video: !December 20, 2007 The Play Station 3 firmware update 2.10 arrived yesterday, adding Blu-ray Disc Profile 1.1 support, and more importantly, Xvi D and Div X playback.The following is an example of the output for a failed run: ffmpeg version UNKNOWN, Copyright (c) 2000-2011 the FFmpeg developers built on Sep 16 2013 with gcc 4.2.1 configuration: --prefix=/usr/syno --arch=i686 --target-os=linux --cross-prefix=/usr/local/i686-linux-gnu/bin/i686-linux-gnu- --enable-cross-compile --enable-optimizations --disable-yasm --disable-altivec --enable-pic --enable-shared --disable-static --disable-swscale-alpha --disable-ffserver --disable-ffplay --enable-libmp3lame --enable-libfaac --enable-nonfree --enable-version3 --enable-libopencore-amrnb --enable-libopencore-amrwb --disable-decoder=amrnb --disable-indev=alsa --disable-outdev=alsa --disable-encoder=dca --disable-encoder=ac3 --disable-encoder=ac3_fixed --disable-encoder=ac3_float --disable-encoder=eac3 --disable-decoder=dca --disable-decoder=eac3 --disable-decoder=truehd --cc=/usr/local/i686-linux-gnu/bin/i686-linux-gnu-ccache-gcc libavutil 50. I will warn you that there are hell lot of combinations possible for output(bitrate,framerate etc.), but all that you have to decide.[Player version list now moved to separate post] As of 2am this morning, the latest software for the Xbox HD DVD player is now available via Xbox Live (and will be posted on in due course).

[0][0][0] / 0x0021, yuv420p, 1280x692 [PAR 1:1 DAR 33], q=2-31, 2997 tbn, 23.98 tbc (default) Stream #0.1(eng): Audio: libfaac, 48000 Hz, stereo (default) Stream mapping: Stream #0.1 - The XBox support website gives details on supported file types, with mp4 included in the H.264 standard: I'm at a bit of a loss.One really cool feature is the thumbnail previews - they're not just a static image, but a 15 second clip of video that loops in the Video menu.When files are copied to the drive, a thumbnail is made from the first 15 seconds of the clip automatically - but at any stage while viewing, you can set the next 15 seconds of footage as the thumbnail for the clip.I'm very rusty on Linux and new to transcoding, but the script I currently have is the following: Which, as I understand it, simply copies the audio and video components within the mkv container, and inserts them into a new mp4 container. This has worked for several of my files, but there are a number for which this does not work.

Search for updating xbox 360 codecs:

updating xbox 360 codecs-33updating xbox 360 codecs-27updating xbox 360 codecs-56updating xbox 360 codecs-71

Leave a Reply

Your email address will not be published. Required fields are marked *

One thought on “updating xbox 360 codecs”